#TITLE:3n1r4nc3;
#SUBTITLE:fo sho?;
#ARTIST:McKids Krew;
#TITLETRANSLIT:;
#SUBTITLETRANSLIT:;
#ARTISTTRANSLIT:;
#CREDIT:;
#BANNER:entrance-bn.png;
#BACKGROUND:entrance-bg.png;
#LYRICSPATH:;
#CDTITLE:!Dan23!.png;
#MUSIC:Entrance.mp3;
#OFFSET:-1.373;
#SAMPLESTART:49.240;
#SAMPLELENGTH:15.400;
#SELECTABLE:YES;
#BPMS:0.000=179.940,208.000=89.970,226.000=179.940;
#STOPS:;
#BGCHANGES:;
// cache tags:
#FIRSTBEAT:0.167;
#LASTBEAT:268.750;
#SONGFILENAME:Songs/nhac/Dan23 - Entrance/Entrance.sm;
#HASMUSIC:1;
#HASBANNER:1;
#MUSICLENGTH:98.706;
// end cache tags

//---------------dance-single - ----------------
#NOTES:
     dance-single:
     :
     Hard:
     11:
     1.000,1.000,1.000,0.051,0.755,617.000,152.000,5.000,0.000,0.000:



0000
0000
0000
0000
,
0000
0000
0000
0000
,
0000
0000
0000
0000
,
0000
0000
0000
0000
,
1001
0000
1100
0000
0010
0000
0101
0000
1001
0000
0010
0100
0001
0000
1000
0000
,
1010
0000
1001
0000
0011
0000
0100
0000
1000
0000
0010
0000
0100
0000
0001
0100
,
0010
1100
0001
0101
1001
0100
0010
1000
,
0101
0000
1000
0010
0100
0000
0001
0000
1000
0000
0100
0000
0010
0000
0001
0000
,
1100
0000
0000
1001
0000
0000
0110
0000
0000
0000
0101
0000
1100
0000
1001
0000
,
0110
0000
0101
0000
1100
0000
0010
0100
0001
0000
1100
0000
0101
0000
1001
0000
,
0110
0000
0000
1010
0000
0000
0011
0000
0000
0000
1100
0000
0101
0000
1001
0000
,
0110
0000
1010
0000
0101
0000
1000
0010
0100
0001
0100
0010
1000
0001
0010
0100
,
1001
0000
0100
0010
1000
0000
1000
0010
0100
0000
0100
0010
1000
0000
0001
0000
,
1001
0000
0001
0100
0010
0000
0010
0100
0001
0000
0001
1000
0100
0000
0010
0000
,
0011
0000
0001
0100
0010
0000
0010
0100
0001
0000
0001
1000
0100
0000
0010
0000
,
0101
0000
1000
0100
0010
0000
0010
0001
0100
0000
0100
0010
1000
0100
0010
0001
,
1000
0000
0010
0100
0001
0000
1000
0100
0010
0000
0001
0100
0010
0000
1000
0000
,
1010
0000
0001
0100
0010
0000
1000
0010
0100
0000
0001
0010
0100
0000
1000
0000
,
1100
0000
0001
1000
0001
0000
0100
0010
1000
0000
0001
0010
0100
0000
1000
0000
,
1100
0000
0010
0100
0001
0000
1000
0100
1000
0000
0001
0100
0001
0000
1000
0000
,
1001
0000
0000
1100
0000
0000
1001
0000
0000
0000
0001
0000
0100
0000
0010
0000
,
1100
0000
0001
0000
1001
0000
0100
0010
0100
0000
0001
0000
1001
0000
1100
0000
,
1001
0000
0000
1100
0000
0000
0101
0000
0000
0000
1000
0000
0010
0000
0100
0000
,
0101
0000
1000
0000
1001
0000
0001
0100
0010
0000
1000
0000
1100
0000
0101
0000
,
1001
0000
0000
0110
0000
0000
0101
0000
0000
0000
1000
0000
0010
0000
0100
0000
,
1001
0000
0101
0000
1100
0000
0010
0100
0001
0000
1000
0000
0011
0000
1010
0000
,
1001
0000
0000
0110
0000
0000
1001
0000
0000
0000
0100
0000
0010
0000
1000
0000
,
0101
0000
0100
0010
1000
0000
0100
0000
0010
0001
0100
0010
1000
0001
0100
0001
,
1000
0000
0001
0000
0101
0000
1000
0000
1100
0000
0001
0000
0010
0100
0010
0100
,
0010
0000
1000
0000
1100
0000
0001
0000
0101
0000
1000
0010
0100
0001
0010
0100
,
1000
0000
0001
0000
0110
0000
1000
0000
1100
0000
0001
0000
0001
0100
0010
1000
,
0100
0000
0010
0000
0011
0000
0001
0000
0101
0000
1000
0100
0010
0001
0100
0010
,
1000
0000
0010
0000
0101
0000
1001
0000
0010
0000
0100
0000
0010
1000
0001
0100
,
0010
0000
1000
0000
1100
0000
0001
0000
0101
0000
1000
0010
0100
0001
1000
0100
,
1000
0000
0001
0000
0101
0000
1000
0000
1001
0000
0100
0000
0010
0100
0010
0100
,
0010
0000
1000
0000
0010
0000
0100
0000
0001
0000
0010
0000
0100
1000
0001
0100
,
0001
1100
0010
1001
0010
1100
0001
0011
,
0101
0000
1100
0000
1001
0000
0100
0000
0010
0000
1000
0100
0010
0001
0100
0010
,
1000
0101
1000
1100
0001
1001
0010
1100
,
0101
0000
0011
0000
1001
0000
0010
0000
1100
0000
0000
1001
0000
0000
0101
0000
,
1001
1010
0001
1001
0001
1100
0010
1001
,
1100
0000
0101
0000
1001
0000
0010
0000
0100
0000
0001
0000
1000
0100
0010
0001
,
1000
1010
0001
1100
0010
0101
0010
1001
,
0110
0000
1001
0000
0001
0100
0001
0100
0010
1000
0010
1000
0001
0100
0010
1000
,
0001
0000
0100
0010
0100
0000
1001
0000
0010
0000
1100
0000
0001
0000
1100
0000
,
0110
0000
0011
0000
1100
0000
0010
0100
0001
0000
1000
0000
0001
0100
0010
1000
,
0100
0000
0010
0001
0010
0000
1100
0000
0001
0000
1001
0000
0010
0000
1100
0000
,
0101
0000
1001
0000
0110
0000
0100
0000
1001
0000
0000
1100
0000
0000
0011
0000
,
1001
0000
0100
0010
1000
0000
0101
0000
0010
0000
1100
0000
0010
0000
1001
0000
,
0110
0000
1001
0000
0001
0000
0100
0000
0010
0000
1000
0100
0010
0001
0100
0010
,
1000
0000
0001
0100
0001
0000
1100
0000
0001
0000
0101
0000
1000
0000
0110
0000
,
1001
0000
0110
0000
0001
0100
0010
1000
0100
0010
0001
0100
0010
1000
0001
0100
,
2002
0000
0000
0000
0000
0000
0000
3003
1000
0100
0010
0001
0100
0010
1000
0100
,
1000
0001
0100
0010
1000
0001
0100
0010
0100
0001
0010
0100
1000
0010
0100
0001
,
1100
0001
0100
0010
1000
0010
0100
0001
1001
0010
0100
0001
0010
0100
1000
0001
,
0100
0010
0100
0001
1000
0100
0010
0001
0100
0010
1000
0001
0100
0001
1000
0100
,
0010
0001
0010
0100
1000
0001
1000
0001
0010
0100
0010
0100
0010
0000
0001
0000
,
0100
0010
1100
0001
0100
0010
0101
1000
,
0001
0000
1000
0010
0100
0000
0001
0000
1000
0001
1000
0001
1000
0000
0010
0000
,
0100
0001
1100
0001
0100
0001
1001
0110
,
0010
0000
0100
0000
1001
0000
0001
0000
0010
1000
0010
1000
0010
0000
0100
0000
,
0001
0010
1100
0001
0100
0010
0101
0100
,
0010
0000
1000
0000
1001
0000
0100
0000
0001
0100
0001
0100
0001
0000
0100
0000
,
0010
0000
1000
0000
1100
0000
0001
0000
1000
0100
0010
0001
0100
0010
1000
0001
,
0100
0010
1000
0100
0010
0001
0100
0010
2000
0000
3100
0000
0011
0000
0100
0000
,
1001
0000
0100
0010
1000
0001
0010
0100
2002
0000
0000
0000
0000
0000
0000
0000
,
0000
0000
0000
3003
;

//---------------dance-single - Blank----------------
#NOTES:
     dance-single:
     Blank:
     Beginner:
     1:
     1.000,1.000,1.000,0.000,1.000,1287.000,301.000,0.000,0.000,62.000:

0000
1100
1100
0000
0000
0110
0000
0000
0000
0001
0010
0001
0010
0000
0110
0000
0000
0000
0000
1100
1000
0100
0100
0010
,
0000
0000
0000
0011
0000
0011
0000
0000
0110
0000
0000
0000
1100
0000
1000
0100
0000
0110
0000
0000
0000
0000
0011
0000
,
0011
0000
0110
0000
0000
0000
0000
1100
0000
1100
0000
0000
0110
0000
0000
0000
0000
0011
0000
0011
0000
0110
0000
0000
,
0000
0000
1000
0000
0100
0010
0001
0000
1000
0100
0010
0001
1000
0000
0100
0010
0001
1000
0000
0100
0010
0001
1000
0100
,
0010
0000
0100
0000
0011
0000
1000
0000
0100
0000
0110
0000
0010
0000
0001
0000
1000
0000
0110
0000
0100
0000
0010
0000
0001
0000
1000
0000
0110
0000
0100
0000
0010
0000
0001
0000
0010
0000
1001
0100
0000
0000
0010
0000
1001
0100
0000
0000
,
0010
0000
0000
0000
0000
0000
0000
0000
0000
0000
0000
0000
0100
0000
0000
0000
0000
0000
0000
0000
0000
0000
0000
0000
1010
0000
0000
0000
0000
0000
0000
0000
0001
0000
0000
0000
0100
0000
0000
0000
0000
0000
0000
0000
0000
0000
0000
0000
0010
0000
0000
0000
0000
0000
0000
0000
0000
0000
0000
0000
0100
0000
0000
0000
0000
0000
0010
0000
0000
0000
0000
0000
0101
0000
0000
0000
0000
0000
0000
0000
0010
0000
0000
0000
0000
0000
0000
0000
0100
0000
0000
0000
0000
0000
0000
0000
0010
0000
0000
0000
0000
0000
0000
0000
0100
0000
0000
0000
0000
0000
0000
0000
1000
0000
0000
0000
0000
0000
0000
0000
0001
0000
0000
0000
0000
0000
0000
0000
0010
0000
0000
0000
0000
0000
0000
0000
0100
0000
0000
0000
0000
0000
0000
0000
0010
0000
0000
0000
0000
0000
0000
0000
0100
0000
0000
0000
0000
0000
0000
0000
1000
0000
0000
0000
0000
0000
0000
0000
0001
0000
0000
0000
0000
0000
0000
0000
0010
0000
0000
0000
0000
0000
0000
0000
0100
0000
0000
0000
0000
0000
0000
0000
,
0010
0000
0000
0000
0000
0000
0000
0000
0100
0000
0000
0000
0000
0000
0000
0000
1000
0000
0000
0000
0000
0000
0000
0000
0001
0000
0000
0000
0000
0000
0000
0000
0010
0000
0000
0000
0000
0000
0000
0000
0100
0000
0000
0000
0000
0000
0000
0000
0010
0000
0000
0000
0000
0000
0000
0000
0100
0000
0000
0000
0000
0000
0000
0000
1000
0000
0000
0000
0000
0000
0000
0000
0000
0000
0000
0000
0000
0000
0010
0000
1001
0000
0000
0000
0000
0000
0000
0000
0000
0000
0100
0000
0000
0000
0000
0000
0010
0000
0000
0000
0000
0000
0100
0000
0000
0000
0000
0000
0010
0000
0000
0000
0000
0000
0100
0000
0000
0000
0000
0000
0001
0000
0000
0000
0000
0000
0010
0000
1000
0000
0000
0000
0100
0000
0000
0000
0000
0000
0010
0000
0000
0000
0000
0000
0100
0000
0000
0000
0000
0000
0000
0000
0000
0000
0000
0000
0010
0000
0000
0000
0000
0000
0100
0000
0000
0000
0000
0000
1011
0000
0000
0000
0000
0000
0000
0000
0000
0000
0000
0000
0100
0000
0000
0000
0000
0000
0000
0000
0000
0000
0000
0000
,
0010
0000
0000
0101
0000
0000
0010
0000
0000
1000
0100
0010
0100
0010
0001
1000
0100
0010
0110
0001
1000
0100
0010
0100
,
0010
0000
0000
0000
0000
0000
0000
0000
0001
0000
0000
0000
0000
0000
0000
0000
1000
0000
0000
0000
0000
0000
0000
0000
0100
0000
0000
0000
0000
0000
0000
0000
0010
0000
0000
0000
0000
0000
0000
0000
0100
0000
0000
0000
0000
0000
0000
0000
0010
0000
0000
0000
0000
0000
0000
0000
0000
0000
0000
0000
0000
0000
0000
0000
0001
0000
0000
0000
0000
0000
0000
0000
1000
0000
0000
0000
0000
0000
0000
0000
0001
0000
0000
0000
0000
0000
0000
0000
0000
0000
0000
0000
0000
0000
0000
0000
0010
0000
0000
0000
0000
0000
0000
0000
0000
0000
0000
0000
0100
0000
0000
0000
0000
0000
0010
0000
0000
0000
0000
0000
0100
0000
0000
0000
0000
0000
0000
0000
1001
0000
0000
0000
0010
0000
0000
0000
0001
0000
0100
0000
0000
0000
0000
0000
0000
0000
0000
0000
0000
0000
0110
0000
0000
0000
0000
0000
0000
0000
0000
0000
0000
0000
0010
0000
0000
0000
0000
0000
1100
0000
0000
0000
0000
0000
0000
0000
0001
0000
0000
0000
0010
0000
0000
0000
0001
0000
0100
0000
0000
0000
0000
0000
,
0010
0000
0000
0000
0000
0000
0000
0000
0000
0000
0000
0000
0100
0000
0000
0000
0000
0000
0010
0000
0000
0000
0000
0000
0101
0000
0000
0000
0000
0000
0000
0000
1000
0000
0000
0000
0010
0000
0000
0000
0001
0000
0100
0000
0000
0000
0000
0000
0010
0000
0000
0000
0000
0000
0000
0000
0000
0000
0000
0000
0000
0000
0000
0000
0000
0000
0000
0000
0000
0000
0000
0000
0110
0000
0000
0000
0000
0000
0000
0000
0000
0000
0000
0000
1000
0000
0000
0000
0110
0000
0001
0000
0000
0000
0000
0000
0000
0000
0000
0000
0000
0000
1000
0000
0110
0000
0000
0000
0001
0000
0000
0000
0000
0000
1000
0000
0000
0000
0000
0000
0110
0000
0000
0000
0000
0000
0001
0000
0000
0000
0000
0000
1000
0000
0000
0000
0110
0000
0001
0000
0000
0000
0000
0000
0000
0000
0000
0000
0000
0000
1000
0000
0110
0000
0000
0000
0001
0000
0000
0000
0000
0000
1000
0000
0000
0000
0000
0000
0110
0000
0000
0000
0000
0000
0001
0000
0000
0000
0000
0000
1000
0000
0000
0000
0110
0000
0001
0000
0000
0000
0000
0000
,
0000
0000
0000
0000
0000
0000
1000
0000
0110
0000
0000
0000
0001
0000
0000
0000
0000
0000
1000
0000
0000
0000
0000
0000
0111
0000
0000
0000
0000
0000
0000
0000
0000
0000
0000
0000
1000
0000
0000
0000
0000
0000
0000
0000
0000
0000
0000
0000
0000
0000
0000
0000
0000
0000
0000
0000
0000
0000
0000
0000
0000
0000
0000
0000
0000
0000
0000
0000
0000
0000
0000
0000
1110
0000
0000
0000
0000
0000
0000
0000
0001
0000
0000
0000
0000
0000
0000
0000
1001
0000
0000
0000
0000
0000
0000
0000
0110
0000
0000
0000
0000
0000
0000
0000
1011
0000
0000
0000
0000
0000
0000
0000
0000
0000
0000
0000
0000
0000
0000
0000
0100
0000
0000
0000
0000
0000
0000
0000
1011
0000
0000
0000
0000
0000
0000
0000
1001
0000
0000
0000
0000
0000
0000
0000
0110
0000
0000
0000
0000
0000
0000
0000
0011
0000
0000
0000
0000
0000
0000
0000
1000
0000
0000
0000
0000
0000
0000
0000
1101
0000
0000
0000
0000
0000
0000
0000
0010
0000
0000
0000
0000
0000
0000
0000
0001
0000
0000
0000
0000
0000
0000
0000
,
1110
0000
0000
0000
0000
0000
0000
0000
1011
0000
0000
0000
0000
0000
0000
0000
0000
0000
0000
0000
0000
0000
0000
0000
1011
0000
0000
0000
0000
0000
0100
0000
0000
0000
0000
0000
0100
0000
0000
0000
0000
0000
0000
0000
0000
0000
0000
0000
0000
0000
0000
0000
0000
0000
0000
0000
0000
0000
0000
0000
0000
0000
0000
0000
0000
0000
0000
0000
0000
0000
0000
0000
1101
0000
0000
0000
0000
0000
0010
0000
0000
0000
0000
0000
0000
0000
0000
0000
1101
0000
0000
0000
0000
0000
0000
0000
0010
0000
0000
0000
0000
0000
0000
0000
1101
0000
0000
0000
0000
0000
0000
0000
0000
0000
0000
0000
0000
0000
0000
0000
1111
0000
0000
0000
0000
0000
0000
0000
0000
0000
0000
0000
0000
0000
0000
0000
0001
0000
0010
0000
0000
0000
0000
0000
1100
0000
0000
0000
0000
0000
0010
0000
1101
0000
0000
0000
0000
0000
0000
0000
0000
0000
0000
0000
0000
0000
0000
0000
1101
0000
0000
0000
0000
0000
0010
0000
0000
0000
0000
0000
0000
0000
0000
0000
1101
0000
0000
0000
0000
0000
0000
0000
,
0010
0000
1101
0010
0000
0000
1100
0000
0001
0010
0000
0000
0000
0000
0000
0000
0100
0000
1000
0000
0011
0000
0000
0000
0100
0000
0000
0010
0000
0000
1001
0000
0000
0100
0000
0000
0110
0000
0000
0001
0010
0000
1000
0000
0000
0100
0000
0000
,
1010
0000
0000
0001
0100
0000
1000
0000
0010
0100
0000
0000
0010
0000
0000
0001
0100
0000
0001
0000
1100
0010
0000
0000
1000
0000
0000
0101
0000
0000
0000
0000
0100
1010
0000
0000
0100
0000
0000
0001
0000
0000
0010
0000
0100
1000
0000
0000
,
0011
0000
0000
0100
0000
0000
0010
0000
0100
1000
0000
0000
0001
0000
0000
0010
1000
0000
0100
0000
0000
0010
0000
0000
0101
0000
0000
1000
0010
0000
0100
0000
0001
0010
0000
0000
0110
0000
0000
1000
0000
0000
0010
0000
0001
0100
0000
0000
,
1000
0000
0000
0001
0010
0000
0100
0000
0000
0010
0000
0000
1101
0000
0000
0000
0000
0000
0010
0000
1000
0110
0000
0000
0101
0000
0000
0000
0010
0000
1100
0000
0001
0010
0000
0000
0100
0000
0000
1000
0100
0000
0010
0000
0000
0100
0000
0000
,
0001
0000
0000
1000
0010
0000
0010
0000
0100
0100
0000
0000
1001
0000
0000
1000
0010
0000
1000
0000
0100
0110
0000
0000
0001
0000
0000
1000
0010
0000
0110
0000
1000
0000
0000
0000
0101
0000
0000
0000
0100
0000
1010
0000
0000
0100
0000
0000
,
0011
0000
0000
0100
0000
0000
1010
0000
0001
0001
0000
0000
0100
0000
0000
0010
1000
0000
0101
0000
0000
0010
0000
0000
0101
0000
0000
1000
0000
0000
0010
0000
0101
0100
0000
0000
0010
0000
0000
1000
0100
0000
0110
0000
0000
0000
0000
0000
,
1001
0000
0000
0100
0000
0000
0010
0000
0000
1100
0000
0000
0010
0000
0000
1001
0101
0000
0000
0000
0000
0110
0000
0000
1001
0000
0000
0100
0000
0000
1010
0000
0000
0110
0000
0000
0101
0000
0000
0100
0010
0000
1010
0000
0100
0001
0000
0000
,
0100
0000
0000
0010
0000
0000
1001
0000
0000
0010
0000
0000
1100
0000
0000
0001
0100
0000
0010
0000
0000
0100
0000
0000
1010
0000
0000
0001
0000
0000
0100
0000
0000
0010
0000
0000
1100
0000
0000
0001
1000
0000
0010
0000
0000
0100
0000
0000
,
0010
0000
0000
0000
0000
0000
0000
0000
0000
0000
0000
0000
0001
0000
0000
0000
0100
0000
0000
0000
0000
0000
0000
0000
1000
0000
0000
0000
0000
0000
0000
0000
0010
0000
0000
0000
0110
0000
0000
0000
0000
0000
0000
0000
0000
0000
0000
0000
0001
0000
0000
0000
0000
0000
0000
0000
0000
0000
0000
0000
1100
0000
0000
0000
0000
0000
0000
0000
0000
0000
0000
0000
0011
0000
0000
0000
0000
0000
0000
0000
0000
0000
0000
0000
1000
0000
0000
0000
0000
0000
0000
0000
0000
0000
0000
0000
0110
0000
0000
0000
0000
0000
0000
0000
0000
0000
0000
0000
0000
0000
0000
0000
0111
0000
0000
0000
0000
0000
0000
0000
1000
0000
0000
0000
0000
0000
0100
0000
0001
0000
0000
0000
0010
0000
0000
0000
0000
0000
0000
0000
0000
0000
0000
0000
0001
0000
0000
0000
0000
0000
1000
0000
0000
0000
0000
0000
0100
0000
0000
0000
0000
0000
0010
0000
0000
0000
0000
0000
0001
0000
0000
0000
0000
0000
1000
0000
0000
0000
0000
0000
0100
0000
0000
0000
0000
0000
0010
0000
0000
0000
0000
0000
,
0001
1000
0100
0010
0001
1000
0100
0010
1001
0100
0010
0000
1001
0000
0110
0001
1000
0100
0010
0001
1000
0100
0010
0001
1000
0100
0010
0001
1000
0100
0010
0001
,
0000
0000
0000
0000
0000
0000
1111
0000
0000
0000
0000
0000
0000
0000
0000
0000
1000
0000
0000
0000
0000
0000
0000
0000
0000
0000
0000
0000
0000
0000
0001
0000
0100
0000
0000
0000
0010
0000
0000
0000
0000
0000
0000
0000
0000
0000
0000
0000
0100
0000
0000
0000
0000
0000
1000
0000
0000
0000
0000
0000
0011
0000
0000
0000
0000
0000
0100
0000
0000
0000
0000
0000
0000
0000
0000
0000
0000
0000
1000
0000
0000
0000
0000
0000
0011
0000
0000
0000
0000
0000
0100
0000
0000
0000
0000
0000
1000
0000
0000
0000
0000
0000
0001
0000
0000
0000
0000
0000
0010
0000
0000
0000
0000
0000
0100
0000
0000
0000
0000
0000
1000
0000
0000
0000
0000
0000
0001
0000
0000
0000
0000
0000
0010
0000
0000
0000
0000
0000
0100
0000
0000
0000
0000
0000
1000
0000
0000
0000
0000
0000
0001
0000
0000
0000
0000
0000
0110
0000
0000
0000
0000
0000
1000
0000
0000
0000
0000
0000
0000
0000
0000
0000
0000
0000
0011
0000
0000
0000
0000
0000
0100
0000
0000
0000
0000
0000
1000
0000
0000
0000
0000
0000
,
0001
0000
0000
0000
0000
0000
1110
0000
0000
0000
0000
0000
0000
0000
0000
0000
0000
0000
0000
0000
0000
0000
0000
0000
1111
0000
0000
0000
0000
0000
0000
0000
0000
0000
0000
0000
0000
0000
0000
0000
0100
0000
0000
0000
0000
0000
0000
0000
0010
0000
0000
0000
0000
0000
0000
0000
0000
0000
0000
0000
0000
0000
0000
0000
0000
0000
0000
0000
0000
0000
0000
0000
1111
0000
0000
0000
0000
0000
0000
0000
0000
0000
0000
0000
0000
0000
0000
0000
0000
0000
0000
0000
0000
0000
0000
0000
0110
0000
0000
0000
0000
0000
0000
0000
0000
0000
0000
0000
0000
0000
0000
0000
0000
0000
0000
0000
0000
0000
0000
0000
1111
0000
0000
0000
0000
0000
0000
0000
0000
0000
0000
0000
0000
0000
0000
0000
0000
0000
0000
0000
0000
0000
0000
0000
0110
0000
0000
0000
0000
0000
0000
0000
0000
0000
0000
0000
0000
0000
0000
0000
0000
0000
0000
0000
0000
0000
0000
0000
0000
0000
0000
0000
0000
0000
1111
0000
0000
0000
0000
0000
0000
0000
0000
0000
0000
0000
0000
0000
0000
0000
0000
0000
,
0000
0000
0000
0000
0000
0000
1000
0000
0000
0000
0000
0000
0100
0000
0000
0000
0000
0000
0010
0000
0000
0000
0000
0000
0000
0000
0000
0000
0000
0000
1000
0000
0000
0000
0000
0000
0000
0000
0000
0000
0000
0000
0000
0000
0000
0000
0000
0000
0111
0000
0000
0000
0000
0000
0000
0000
0000
0000
0000
0000
0000
0000
0000
0000
1110
0000
0000
0000
0000
0000
0000
0000
0000
0000
0000
0000
0000
0000
0000
0000
0111
0000
0000
0000
0000
0000
0000
0000
0000
0000
0000
0000
0000
0000
0000
0000
1110
0000
0000
0000
0000
0000
0000
0000
0001
0000
0000
0000
0000
0000
0000
0000
0110
0000
0000
0000
0000
0000
0000
0000
1000
0000
0000
0000
0000
0000
0000
0000
0111
0000
0000
0000
0000
0000
0000
0000
1000
0000
0000
0000
0000
0000
0000
0000
0111
0000
0000
0000
0000
0000
0000
0000
1000
0000
0000
0000
0000
0000
0000
0000
0110
0000
0000
0000
0000
0000
0000
0000
0001
0000
0000
0000
0000
0000
0000
0000
0110
0000
0000
0000
0000
0000
0000
0000
0000
0000
0000
0000
0000
0000
0000
0000
,
0110
0000
0000
0000
1001
0000
0000
0000
1001
0010
0000
0000
1101
0000
0000
0010
1001
0000
0100
0000
1001
0010
0000
0000
1101
0000
0000
0010
1001
0000
0100
0000
1001
0010
0000
0000
1101
0000
0000
0010
1001
0000
0100
0000
1001
0000
0000
0000
,
1001
0000
0000
0000
0011
0000
1000
0000
0011
0100
0000
0000
1011
0000
0000
0100
0011
0000
1000
0000
0011
0100
0000
0000
1011
0000
0000
0100
0011
0000
1000
0000
0011
0100
0000
0000
1011
0000
0000
0100
0011
0000
1000
0000
0011
0000
0000
0000
,
0011
0000
0000
0000
1100
0000
0010
0000
1100
0001
0000
0000
1110
0000
0000
0001
1100
0000
0010
0000
1100
0001
0000
0000
1110
0000
0000
0001
1100
0000
0010
0000
1100
0001
0000
0000
1110
0000
0000
0001
1100
0000
0010
0000
1100
0000
0000
0000
,
0110
0000
0000
0000
0000
0000
0100
0000
0000
0010
0000
0000
1000
0000
0000
0000
0100
0000
0000
0000
0011
1000
0000
0000
1100
0000
0000
0000
0110
0000
0000
0000
0001
0100
0000
0000
1000
0000
0000
0000
0110
0000
0010
0000
0001
0100
0000
0000
,
1000
0000
0000
0000
0110
0000
0000
0000
0001
0010
0000
0000
1110
0000
0000
0000
0100
0000
0000
0000
1011
0000
0000
0000
0100
0000
0000
0000
0011
0000
0100
0000
1000
0000
0000
0000
0100
0000
0000
0000
0011
0000
0100
0000
1000
0010
0000
0000
,
0101
0000
0000
0000
0011
0000
1000
0000
1000
0100
0000
0000
0110
0000
0000
0001
0011
0000
0000
0000
1100
0000
0000
0000
0011
0000
0000
0000
1100
0000
0000
0000
0011
0100
0000
0000
1000
0000
0000
0000
0111
0000
0000
0000
1000
0010
0000
0000
,
0101
0000
0000
1000
0000
0000
0110
0000
0000
0001
0000
0000
1111
0000
0000
0000
1111
0000
0000
0000
1111
0000
0000
0000
1111
0000
0000
0000
1100
0000
0000
0000
0011
0000
0000
0000
1111
0000
0000
0000
1111
0000
0000
0000
0000
0000
0010
0000
,
0100
0000
0000
0000
0000
0000
0000
0000
0000
0000
0000
0000
0010
0000
0000
0000
0000
0000
0000
0000
0000
0000
0000
0000
0000
0000
0000
0000
0000
0000
0100
0000
0000
0000
0000
0000
1010
0000
0000
0000
0000
0000
0000
0000
0000
0000
0000
0000
0000
0000
0000
0000
0000
0000
0000
0000
0000
0000
0000
0000
0000
0000
0000
0000
0000
0000
0000
0000
0000
0000
0000
0000
1000
0000
0000
0000
0110
0000
0000
0000
0001
0000
0000
0000
0000
0000
0000
0000
0000
0000
1000
0000
0000
0000
0000
0000
0110
0000
0000
0000
0000
0000
0001
0000
0000
0000
0000
0000
0000
0000
0000
0000
0000
0000
0000
0000
0000
0000
0000
0000
0000
0000
0000
0000
0010
0000
0000
0000
0000
0000
0000
0000
0000
0000
0000
0000
0000
0000
0000
0000
0000
0000
0000
0000
0000
0000
0000
0000
0000
0000
0000
0000
0000
0000
0000
0000
0000
0000
0000
0000
1000
0000
0000
0000
0100
0000
0000
0000
0010
0000
0000
0000
0000
0000
0000
0000
0001
0000
0000
0000
0000
0000
0000
0000
0000
0000
0001
0000
0000
0000
0000
0000
,
0000
0000
0000
0000
0000
0000
0110
0000
0000
0000
0000
0000
1000
0000
0000
0000
0000
0000
0000
0000
0000
0000
0000
0000
0000
0000
0000
0000
0010
0000
0000
0000
0000
0000
0000
0000
0000
0000
0000
0000
0000
0000
0000
0000
0000
0000
0000
0000
0000
0000
0000
0000
0000
0000
0000
0000
0000
0000
0000
0000
0001
0000
0000
0000
0000
0000
0000
0000
0010
0000
0000
0000
0100
0000
0000
0000
1000
0000
0000
0000
0000
0000
0000
0000
0000
0000
0000
0000
0000
0000
0000
0000
0000
0000
0000
0000
1000
0000
0000
0000
0000
0000
0100
0000
0000
0000
0000
0000
0010
0000
0000
0000
0000
0000
0001
0000
0000
0000
0000
0000
0010
0000
0000
0000
0000
0000
0000
0000
0000
0000
0000
0000
0000
0000
0000
0000
0000
0000
0000
0000
0000
0000
0000
0000
0000
0000
0000
0000
1000
0000
0000
0000
0010
0000
0000
0000
0000
0000
0000
0000
0100
0000
0000
0000
0001
0000
0000
0000
0000
0000
0000
0000
0000
0000
0000
0000
0000
0000
0000
0000
0000
0000
0000
0000
0000
0000
1000
0000
0000
0000
0000
0000
,
0110
0000
0000
0000
0000
0000
0001
0000
0000
0000
0000
0000
0000
0000
0000
0000
0000
0000
0100
0000
0000
0000
0000
0000
0011
0000
0000
0000
1000
0000
0000
0000
0000
0000
0000
0000
0000
0000
0000
0000
0000
0000
0000
0000
0000
0000
0000
0000
0000
0000
0000
0000
0000
0000
0000
0000
0000
0000
0000
0000
0000
0000
0000
0000
0001
0000
0000
0000
0100
0000
0000
0000
0010
0000
0000
0000
0000
0000
0000
0000
1000
0000
0000
0000
0000
0000
0000
0000
0000
0000
0000
0000
0000
0000
0000
0000
0001
0000
0000
0000
0000
0000
0110
0000
0000
0000
0000
0000
1000
0000
0000
0000
0000
0000
0000
0000
0000
0000
0000
0000
0010
0000
0000
0000
0010
0000
0100
0000
0000
0000
0000
0000
1000
0000
0000
0000
0000
0000
0000
0000
0000
0000
0000
0000
0000
0000
0000
0000
0000
0000
0000
0000
0000
0000
0000
0000
0000
0000
0000
0000
0001
0000
0000
0000
0010
0000
0000
0000
0000
0000
0000
0000
0100
0000
0000
0000
0010
0000
0000
0000
0001
0000
0000
0000
0000
0000
0000
0000
0000
0000
0000
0000
,
0000
0000
0000
0000
0000
0000
0000
0000
0000
0000
0000
0000
0000
0000
0000
0000
0000
0000
0000
0000
0000
0000
0000
0000
0100
0000
0000
0000
1000
0000
0011
0000
0000
0000
0000
0000
0000
0000
0000
0000
0000
0000
0000
0000
0000
0000
0000
0000
0000
0000
0000
0000
0000
0000
0000
0000
0000
0000
0000
0000
1000
0000
0000
0000
0100
0000
0000
0000
0000
0000
0000
0000
0010
0000
0000
0000
0100
0000
0000
0000
1000
0000
0000
0000
0000
0000
0000
0000
0000
0000
0000
0000
0000
0000
0000
0000
0000
0000
0000
0000
0000
0000
0010
0000
0000
0000
0000
0000
0100
0000
0000
0000
0000
0000
1000
0000
0000
0000
0000
0000
0010
0000
0000
0000
0001
0000
0100
0000
0000
0000
0000
0000
1000
0000
0000
0000
0000
0000
0000
0000
0000
0000
0000
0000
0000
0000
0000
0000
0000
0000
0000
0000
0000
0000
0000
0000
0000
0000
0000
0000
1000
0000
0000
0000
0100
0000
0000
0000
0000
0000
0000
0000
0000
0000
0000
0000
0010
0000
0000
0000
0000
0000
0000
0000
0001
0000
0000
0000
0000
0000
0000
0000
,
0000
0000
0000
0000
0000
0000
1100
0000
0000
0000
0000
0000
0010
0000
0000
0000
0000
0000
0000
0000
0000
0000
0000
0000
1000
0000
0000
0000
0001
0000
0100
0000
0000
0000
0000
0000
0010
0000
0000
0000
0000
0000
0000
0000
0000
0000
0000
0000
0000
0000
0000
0000
0000
0000
0000
0000
0000
0000
0000
0000
0000
0000
0000
0000
1000
0000
0000
0000
0100
0000
0000
0000
0010
0000
0000
0000
0001
0000
0000
0000
0000
0000
0000
0000
0000
0000
0000
0000
0000
0000
0000
0000
0000
0000
0000
0000
0010
0000
0000
0000
0000
0000
0100
0000
0000
0000
0000
0000
1000
0000
0000
0000
0000
0000
0000
0000
0000
0000
0000
0000
0110
0000
0000
0000
0001
0000
1000
0000
0000
0000
0000
0000
0000
0000
0000
0000
0000
0000
0000
0000
0000
0000
0000
0000
0000
0000
0000
0000
0000
0000
0000
0000
0000
0000
0000
0000
0001
0000
0000
0000
0100
0000
0000
0000
0010
0000
0000
0000
0000
0000
0000
0000
1000
0000
0000
0000
0000
0000
0000
0000
0000
0000
0000
0000
0000
0000
0000
0000
0000
0000
0000
0000
,
1100
0000
0000
0000
0000
0000
0010
0000
0000
0000
0000
0000
0000
0000
0000
0000
0000
0000
1000
0000
0000
0000
0000
0000
0101
0000
0000
0000
0000
0000
0010
0000
0000
0000
0000
0000
0000
0000
0000
0000
0000
0000
0000
0000
0000
0000
0000
0000
0000
0000
0000
0000
0000
0000
0000
0000
1000
0000
0000
0000
0000
0000
0000
0000
0010
0000
0000
0000
0100
0000
0000
0000
0001
0000
0000
0000
0000
0000
0000
0000
0000
0000
0000
0000
0000
0000
0000
0000
0000
0000
0010
0000
0000
0000
0000
0000
0100
0000
0000
0000
0000
0000
1000
0000
0000
0000
0000
0000
0000
0000
0000
0000
0000
0000
1000
0000
0000
0000
0000
0000
0110
0000
0000
0000
0000
0000
0000
0000
0000
0000
0000
0000
0000
0000
0000
0000
0000
0000
0000
0000
0000
0000
0000
0000
0000
0000
0000
0000
0000
0000
0000
0000
0000
0000
0000
0000
0001
0000
0000
0000
0100
0000
0000
0000
0010
0000
0000
0000
1000
0000
0000
0000
0000
0000
0000
0000
0000
0000
0000
0000
0000
0000
0000
0000
0000
0000
0000
0000
0000
0000
0000
0000
,
0111
0000
0000
0000
0000
0000
0010
0000
0000
0000
0000
0000
0000
0000
0000
0000
0000
0000
0000
0000
0000
0000
0000
0000
0100
0000
0000
0000
0000
0000
1000
0000
0000
0000
0000
0000
0010
0000
0000
0000
0000
0000
0000
0000
0000
0000
0000
0000
0000
0000
0000
0000
0000
0000
0000
0000
0000
0000
0000
0000
1000
0000
0000
0000
0000
0000
0000
0000
0010
0000
0000
0000
0100
0000
0000
0000
0001
0000
0000
0000
0000
0000
0000
0000
0000
0000
0000
0000
0000
0000
0000
0000
0000
0000
0000
0000
0000
0000
0000
0000
0000
0000
1000
0000
0000
0000
0000
0000
0100
0000
0000
0000
0000
0000
0000
0000
0000
0000
0000
0000
1010
0000
0000
0000
0000
0000
0000
0000
0000
0000
0000
0000
0100
0000
0000
0000
0000
0000
0000
0000
0000
0000
0000
0000
0000
0000
0000
0000
0000
0000
0000
0000
0000
0000
0000
0000
0001
0000
0000
0000
0100
0000
0000
0000
0010
0000
0000
0000
0000
0000
0000
0000
1000
0000
0000
0000
0000
0000
0000
0000
0000
0000
0000
0000
0000
0000
0100
0000
0000
0000
0000
0000
,
0001
0000
0000
0000
0000
0000
1000
0000
0000
0000
0000
0000
0000
0000
0000
0000
0000
0000
0000
0000
0000
0000
0000
0000
0010
0000
0000
0000
0100
0000
0001
0000
0000
0000
0000
0000
0000
0000
0000
0000
0000
0000
0000
0000
0000
0000
0000
0000
0000
0000
0000
0000
0000
0000
0000
0000
0000
0000
0000
0000
1000
0000
0000
0000
0000
0000
0000
0000
0010
0000
0000
0000
0000
0000
0000
0000
0100
0000
0000
0000
0000
0000
0000
0000
0000
0000
0000
0000
0000
0000
0010
0000
0000
0000
0000
0000
0100
0000
0000
0000
0001
0000
0010
0000
0000
0000
0000
0000
0100
0000
0000
0000
0000
0000
0000
0000
0000
0000
0000
0000
1000
0000
0000
0000
0000
0000
0000
0000
0000
0000
0000
0000
0000
0000
0000
0000
0000
0000
0000
0000
0000
0000
0000
0000
0010
0000
0000
0000
0000
0000
0001
0000
0100
0000
0000
0000
0000
0000
0000
0000
0010
0000
1000
0000
0000
0000
0000
0000
0001
0000
0000
0000
0100
0000
0000
0000
0000
0000
0000
0000
1010
0000
0000
0000
0000
0000
0001
0000
0100
0000
0000
0000
,
0000
0000
0000
0000
0000
0000
1000
0000
0010
0000
0000
0000
0000
0000
0000
0000
0100
0000
0001
0000
0000
0000
0000
0000
1010
0000
0000
0000
0000
0000
0000
0000
0000
0000
0000
0000
0001
0000
0000
0000
0000
0000
0000
0000
0000
0000
0000
0000
0000
0000
0000
0000
0000
0000
0000
0000
0000
0000
0000
0000
0000
0000
0000
0000
0000
0000
0000
0000
0000
0000
0000
0000
0001
0000
0000
0000
0000
0000
0000
0000
1000
0000
0000
0000
0000
0000
0000
0000
0001
0000
0000
0000
0000
0000
0000
0000
1000
0000
0000
0000
0000
0000
0000
0000
0001
0000
0000
0000
0000
0000
0000
0000
1000
0000
0000
0000
0000
0000
0000
0000
0000
0000
0000
0000
0000
0000
0000
0000
1001
0000
0000
0000
0000
0000
0000
0000
0000
0000
0000
0000
0000
0000
0000
0000
0001
0000
0000
0000
0000
0000
0000
0000
1000
0000
0000
0000
0000
0000
0000
0000
0001
0000
0000
0000
0000
0000
0000
0000
1000
0000
0000
0000
0000
0000
0000
0000
0001
0000
0000
0000
0000
0000
0000
0000
1000
0000
0000
0000
0000
0000
0000
0000
,
0001
1000
0000
0001
1000
0001
1000
0001
1000
0001
1000
0010
0100
0000
0110
0000
0010
0100
0010
0100
0010
0100
0010
0100
,
0000
0010
0100
0010
0100
0010
0100
0010
0100
0010
0100
0001
0100
0001
0100
0001
0100
0001
0100
0000
0101
0001
0100
0000
,
0101
0000
0001
0100
0001
0100
0001
0100
0001
0100
0010
1000
0010
1000
0010
1000
0010
1000
0010
1000
0010
1000
0010
1000
,
0010
1000
0010
1000
0010
1000
0010
1000
0010
1000
0001
0100
0001
0100
0001
0100
0101
0001
0100
0001
0100
0000
0110
0010
,
0100
0010
0100
0010
1000
0001
1000
0001
1000
0001
1000
0010
1000
0010
1000
0010
1000
0010
1000
0010
1000
0001
1000
0001
,
1000
0001
1000
0001
0100
0001
0100
0001
0100
0000
0110
0010
0100
0010
0100
0010
0100
0010
0100
0010
0100
0010
1000
0010
,
1000
0010
1000
0001
1000
0001
1000
0001
1000
0001
0100
0001
0100
0001
0100
0000
0100
0010
0000
0100
0010
0100
0010
0100
,
0010
0000
0100
0000
0010
0000
0100
0000
0010
0000
0100
0000
0010
0000
0100
0000
0010
0000
0101
0000
1000
0000
0000
0000
0100
0000
0000
0000
0011
0000
1000
0000
0000
0100
0000
0000
0110
0000
0000
0001
0010
0000
1000
0000
0000
0110
0000
0000
,
0001
0000
0000
1000
0010
0000
0100
0000
0000
0010
0000
0000
0101
0000
0000
1000
1010
0000
0100
0000
0000
0010
0000
0000
1001
0000
0000
1000
0100
0000
0100
0000
0010
0010
0000
0000
1001
0000
0000
1000
0110
0000
0100
0000
0000
0010
0000
0000
,
1101
0000
0000
0000
0010
0000
1111
0000
0000
1111
0000
0000
1111
0000
0000
0000
0000
0000
0001
0000
0000
0000
0000
0000
0000
0000
0000
0100
0000
0000
0110
0000
0000
0110
0000
0000
0110
0000
0000
0000
0000
0000
1001
0000
0000
0000
0000
0000
,
1001
1001
1001
0000
0110
0110
0110
0000
0111
0111
0111
0000
1110
1110
1110
1110
,
0000
0000
0000
0000
0000
0000
0000
0000
0000
0001
0000
0000
0000
0100
0000
0000
0000
0010
0000
0000
0000
0000
0000
0000
0000
1000
0000
0000
0000
0000
0000
0000
0100
0000
0000
0000
0000
0010
0000
0000
0000
0000
0000
0000
0001
0000
0000
0000
0010
0000
0000
0000
0000
0000
0000
0000
0100
0000
0000
0000
0000
0000
0000
0000
,
1000
0000
0000
0100
0000
0000
0010
0000
0001
0000
0000
0000
0000
0000
0000
0000
1000
0000
0100
0000
0000
0000
0010
0000
0001
0000
0000
0000
0000
0000
0000
0000
1000
0000
0100
0000
0000
0000
0000
0010
0000
0001
0000
0000
0000
0000
0000
0000
0000
1000
0000
0100
0000
0000
0010
0000
0000
0001
0000
0000
0000
0000
0000
0000
,
0000
0000
0000
0000
0000
0011
0000
0100
0000
1000
0000
0000
0000
0000
0000
0000
0000
0011
0000
0100
0000
0000
1000
0000
0000
0000
0000
0000
0000
0000
0000
0000
0000
0000
0000
0000
0000
1100
0000
0010
0000
0001
0000
0000
0010
0000
0000
0000
0001
0000
0000
0000
0010
0000
0000
0000
0001
0000
0000
0000
0010
0000
0000
0000
,
0000
0000
0000
0000
0100
0100
0100
0000
0100
0000
0000
0000
0000
0000
0000
0000
0010
0000
0000
0000
0001
0000
0000
0000
0000
0000
0000
0000
1000
0000
0000
0000
0100
0000
0000
0000
0000
0000
0000
0000
0000
0010
0000
0000
0000
0000
0000
0000
0001
0000
0000
0000
0000
1000
0000
0000
0100
0000
0000
0010
0000
0001
0000
0000
,
0000
0000
0000
1000
0000
0000
0000
0000
0000
0000
0000
0000
0000
0000
0000
0000
0000
0000
0010
0000
0000
0000
0000
0000
0100
0000
0000
0000
0000
0000
0010
0000
0000
0000
0000
0000
0000
0000
0000
0100
0000
0000
0000
0000
0000
0010
0000
0000
0000
0000
0000
0000
0000
0000
0100
0000
0000
0000
0000
0000
0000
0000
0000
0010
0000
0000
0000
0000
0000
0000
0000
0000
0100
0000
0000
0000
0000
0000
0000
0000
0000
0010
0000
0000
0000
0000
0000
0100
0000
0000
0000
0000
0000
0000
0000
0000
0000
0000
0000
0000
0000
0000
0000
0000
0001
0000
0000
0000
0000
0000
0000
0000
0000
0000
0000
0000
0000
0000
0000
0000
0010
0000
0000
0000
0000
0000
0000
0000
0000
0000
0000
0000
0001
0000
0000
0000
0100
0000
0000
0000
0000
0000
0000
0000
1000
0000
0000
0000
0000
0000
0000
0000
0000
0000
0000
0000
0100
0000
0000
0000
0000
0000
0000
0000
0000
0000
0000
0000
0010
0000
0000
0000
0000
0000
0000
0000
0000
0000
0000
0000
0001
0000
0000
0000
1000
0000
0000
0000
0000
0000
0000
0000
,
1100
0000
0000
0100
0010
0000
0011
0000
0000
0001
0000
0000
1100
0000
1000
0100
0010
0000
0011
0000
0000
0001
0000
0000
1001
0000
0000
0100
0000
0000
0010
0000
0000
1000
0100
0000
0001
0000
0000
0010
0000
0000
0100
0000
1000
0010
0000
0000
,
0001
0000
0100
1000
0010
0000
0100
0000
0001
0010
0000
0000
0100
0000
0000
1000
0000
0000
0010
0000
0000
0100
0000
0000
0001
0000
0000
1000
0100
0000
0010
0000
0000
0100
1000
0000
0001
0000
0010
1000
0000
0000
0110
0000
0000
0100
0000
0000
,
1001
0000
0000
0010
1000
0000
0000
0000
0100
0110
1000
0000
0001
0000
0000
1000
0000
0000
0100
0000
0000
0010
0010
0000
0101
0000
0000
1000
0000
0000
0101
0000
0000
0010
0000
0000
1100
0000
0000
0010
0000
0000
0101
0000
0000
1000
0010
0000
,
0100
0000
0001
0010
0000
0000
0100
0000
0000
1000
0100
0000
0011
0000
0000
0010
0000
0000
1100
0000
0000
0010
0000
0000
0101
0000
0000
1000
0010
0000
0100
0000
0000
0010
0000
0000
0001
0000
0100
1000
0000
0000
0110
0000
0000
0010
0000
0000
,
0001
0000
1000
1000
0000
0000
0110
0000
0000
0100
0000
0000
1001
0000
0000
1000
0100
0000
0010
0000
0000
0100
0000
0000
0011
0000
0000
0001
1000
0000
0100
0000
0000
0010
0000
0000
1100
0000
0000
0001
0010
0000
0100
0000
0000
0010
0000
0000
,
1000
0000
0100
0001
0000
0000
0010
0000
0000
0100
0000
0000
1000
0000
0010
0001
0000
0000
0100
0000
1000
0010
0000
0000
0001
0000
0100
1000
0000
0000
0011
0000
0000
0100
0000
0000
0010
0000
0100
0001
0000
0000
1000
0000
0000
0100
0001
0000
,
0010
0000
0000
0100
0000
0000
1000
0000
0000
0010
0000
0000
0110
0000
0000
1000
0000
0000
0001
0000
0000
0100
0000
0000
0010
0000
0000
1000
0100
0000
0001
0000
0000
0010
0000
0000
1100
0000
0000
0010
0000
0000
0001
0000
0000
1100
0010
0000
,
0010
0000
0000
0000
0000
0000
1100
0000
0010
0001
0000
0000
0000
0000
0001
1100
0000
0000
0000
0000
0010
0000
0000
0000
0001
0000
1000
0100
0000
0000
0010
0000
0000
0000
0000
0000
0110
0000
0000
0000
0000
0000
1100
0000
0000
0000
0010
0000
,
1100
0000
0000
0000
0000
0000
0000
0000
0000
0000
0000
0000
0011
0000
0000
0000
0000
0000
0000
0000
0000
0000
0000
0000
0000
0000
0000
0000
0000
0000
0000
0000
0000
0000
0000
0000
1100
0000
0000
0000
0010
0000
0000
0000
0000
0000
0000
0000
0000
0000
0000
0000
0000
0000
0000
0000
0000
0000
0000
0000
0011
0000
0000
0000
0100
0000
0000
0000
0000
0000
0000
0000
0000
0000
0000
0000
0000
0000
0000
0000
0000
0000
0000
0000
1100
0000
0000
0000
1000
0000
0000
0000
0000
0000
0000
0000
0010
0000
0000
0000
0000
0000
0000
0000
0000
0000
0000
0000
0000
0000
0000
0000
0000
0000
0000
0000
0000
0000
0000
0000
1001
0000
0000
0000
0000
0000
0000
0000
0000
0000
0000
0000
0000
0000
0000
0000
0000
0000
0000
0000
0000
0000
0000
0000
1100
0000
0000
0000
0000
0000
0000
0000
0000
0000
0000
0000
0010
0000
0000
0000
0000
1000
0000
0000
0000
0000
0000
0000
0001
0000
0000
0000
0000
0000
0000
0000
0100
0000
0000
0000
0000
0000
0000
0000
0010
0000
0000
0000
0000
0000
0000
0000
,
1100
0000
0000
0000
0000
0000
0000
0000
0000
0000
0000
0000
0110
0000
0000
0000
0000
0000
0000
0000
0000
0000
0000
0000
0001
0000
0000
0000
0010
0000
0000
0000
0000
0000
0000
0000
0000
0000
0000
0000
0000
0000
0000
0000
0000
0000
0000
0000
1100
0000
0000
0000
0000
0000
0000
0000
0000
0000
0000
0000
0010
0000
0000
0000
0000
0000
0000
0000
0000
0100
0000
0000
0001
0000
0000
0000
0000
0000
0000
0000
0000
0000
0000
0000
0100
0000
0000
0010
0000
0000
0000
0000
0000
0000
0000
0000
1010
0000
0000
0000
0000
0000
0000
0000
0000
0000
0000
0000
0001
0000
0000
0000
0000
0000
0000
0000
0000
0000
0000
0000
1100
0000
0000
0000
0000
0000
0100
0000
0000
0000
0000
0000
0010
0000
0000
0000
0000
0000
0000
0000
0000
0000
0000
0000
0011
0000
0000
0000
0000
0000
0000
0000
0000
0000
0000
0000
1100
0000
0000
0000
0000
0000
0000
0000
0000
0000
0000
0000
0010
0000
0000
0000
0000
0000
0000
0000
0000
0000
0000
0000
0001
0000
0000
0000
0000
0000
0000
0000
0000
0000
0000
0000
,
1100
0010
0001
1111
0000
0000
0000
0000
0000
0000
0000
0000
0000
0000
0000
0000
;
